Kosmo S01E04 - Řekl někdo kočička (2016)(CZ)


Zaregistrujte se pro stahování torrentů!



Jazyk: CZ
Titulky: Ne
CSFD: http://www.csfd.cz/film/435776-kosmo/prehled/
Kvalita zvuku: MPEG Audio, 256Kbps, 48KHz
Kvalita videa: MPEG-4 Visual (XviD), 720x404 (16:9), 1920Kbps
Rok vydání: 2016
Délka: 40min
Žánr: Komedie / Drama
Režie: Jan Bártek
Scénář: Tomáš Baldýnský
Kamera: Petr Bednář
Hudba: Tomáš Háček
Hrají: Martin Myšička, David Novotný, Jiří Hána, Jakub Žáček, Jana Plodková, Petr Vančura, Eva Josefíková, Václav Kopta, Martin Dejdar, Lenka Krobotová, Tomáš Baldýnský



Česko, dnes. Nově jmenovaný ministr školství a mládeže Lubor Šnajdr brzy po nástupu zjišťuje, že rozpočet ministerstva je téměř vyčerpán projektem České nebe, jehož cílem je vyslat českou posádku na Měsíc. Vychází najevo, že posádka už usilovně trénuje v budovách areálu Brdy 1, který v účetnictví vychází na pět miliard, ale v realitě vypadá jako rozpadající se areál zrušené základní školy. A že centrifuga, kterou ředitel projektu ing. Sumec zanesl do účetnictví v hodnotě 250 miliónů korun, je ve skutečnosti upravený řetízkový kolotoč z majetku firmy Atrakce – Farkaš a syn.

Je pochopitelné, že ministr Šnajdr má na Sumce řadu otázek. Ale protože Sumec promptně odcestoval na ostrov Martinik, kde si z peněz ušetřených z úřednického platu postavil luxusní hotel se soukromým kotvištěm, musí si své otázky zodpovědět Šnajdr sám. Hlavně tu jednu: jak dostat tu partičku ztracenců do konce roku na Měsíc a nemuset tak vrátit Evropské unii dotaci.

Kosmo vypráví v nemilosrdné nadsázce příběh velkého projektu malého národa. Nelítostně se věnuje českým mindrákům, nezůstává však uzavřeno v české kotlině, ale vtahuje do své ironické hry i Američany, Rusy, Číňany, Poláky a Slováky. Je vyprávěno po dvou liniích: Hrdiny té první je čtveřice nekompetentních kosmonautů, kteří putují vesmírem v absurdní raketě spolu s živou slepicí, jejíž účast na vesmírném dobrodružství si vymínil sponzor letu, přední český drůbežář. Hrdiny té druhé je ministr školství a mládeže se svým tajemníkem, kteří let jistí zespodu a zajišťují mu jak politickou podporu, tak naplnění tvrdých podmínek sponzorské smlouvy.

Žánrově Kosmo připomíná klasické české crazy-komedie, ale s temným podtónem společenské kritiky, trochu Zelený Raoul, trochu Červený trpaslík, trochu Jistě, pane ministře, ale zcela stoprocentně Česká republika roku 2016.

           

Media Info:

General
Complete name: C:\Kosmo S01E04 - Řekl někdo kočička.avi
Format: AVI
Format/Info: Audio Video Interleave
File size: 516 MiB
Duration: 32mn 38s
Overall bit rate: 2 211 Kbps
Writing application: Lavf55.7.100

Video
ID: 0
Format: MPEG-4 Visual
Format profile: Simple@L1
Format settings, BVOP: No
Format settings, QPel: No
Format settings, GMC: No warppoints
Format settings, Matrix: Default (H.263)
Codec ID: XVID
Codec ID/Hint: XviD
Duration: 32mn 38s
Bit rate: 1 942 Kbps
Width: 720 pixels
Height: 404 pixels
Display aspect ratio: 16:9
Frame rate: 25.000 fps
Color space: YUV
Chroma subsampling: 4:2:0
Bit depth: 8 bits
Scan type: Progressive
Compression mode: Lossy
Bits/(Pixel*Frame): 0.267
Stream size: 453 MiB (88%)
Title: Main video
Writing library: Lavc55.12.100

Audio
ID: 1
Format: MPEG Audio
Format version: Version 1
Format profile: Layer 3
Mode: Joint stereo
Codec ID: 55
Codec ID/Hint: MP3
Duration: 32mn 38s
Bit rate mode: Constant
Bit rate: 256 Kbps
Channel(s): 2 channels
Sampling rate: 48.0 KHz
Compression mode: Lossy
Stream size: 59.8 MiB (12%)
Alignment: Aligned on interleaves
Interleave, duration: 24 ms (0.60 video frame)
Interleave, preload duration: 24 ms
Title: Czech
Writing library: LAME3.99.5
               

Zaregistrujte se pro stahování torrentů!