Barbie: Tajná agentka / Barbie: Spy Squad (2016)(CZ)


Zaregistrujte se pro stahování torrentů!

Barbie: Tajná agentka /  Barbie: Spy Squad  


Jazyk:český
Titulky:CZ forced
Délka:1h 15mn
Rok vydání:2016
Žánr: Animovaný / Rodinný



Na začátku příběhu filmu Barbie: Tajná agentka zastihneme naši hrdinku Barbie společně s kamarádkami Terezou a Renée na gymnastickém tréninku. Všechny tři dívky jsou tak šikovné, že jejich schopnosti upoutají pozornost tajné agentury, která po celém světě honí ty největší zločince. V jejím hledáčku se právě objevila rafinovaná zlodějka šperků, která svou hbitostí a mrštností překonává i ty nejnepřekonatelnější překážky. Nasadit proti ní tři gymnastky sice vypadá jako šílený a zoufalý nápad, ale, jak dobře víme, odvážnému štěstí přeje. Nový život ve světě špionáže si náramně užívají i Barbie s Terezou a Renée, protože díky tomu mohou zkoušet neuvěřitelné množství nejrůznějších převleků, používat nejmodernější technické vychytávky a trávit čas ve společnosti roztomilých robotích mazlíčků. V první řadě ale budou muset pracovat, tedy honit a polapit mazanou zlodějku, a díky tomu zjistí, že ve zdánlivě křehkých holkách může dřímat pořádná hromada talentu.






General
Complete name: C:\Users\Desktop\Barbie.Spy.Squad.2016.BDRip.XviD.CZ-TreZzoR\Barbie.Spy.Squad.2016.BDRip.XviD.CZ-TreZzoR.avi
Format: AVI
Format/Info: Audio Video Interleave
File size: 1.26 GiB
Duration: 1h 15mn
Overall bit rate: 2 393 Kbps
Writing application: VirtualDubMod 1.5.10.2 (build 2542/release)
Writing library: VirtualDubMod build 2542/release

Video
ID: 0
Format: MPEG-4 Visual
Format profile: Advanced Simple@L5
Format settings, BVOP: 1
Format settings, QPel: No
Format settings, GMC: No warppoints
Format settings, Matrix: Default (MPEG)
Codec ID: XVID
Codec ID/Hint: XviD
Duration: 1h 15mn
Bit rate: 2 000 Kbps
Width: 720 pixels
Height: 400 pixels
Display aspect ratio: 16:9
Frame rate: 23.976 fps
Color space: YUV
Chroma subsampling: 4:2:0
Bit depth: 8 bits
Scan type: Progressive
Compression mode: Lossy
Bits/(Pixel*Frame): 0.290
Stream size: 1.05 GiB (84%)
Writing library: XviD 1.2.1 (UTC 2008-12-04)

Audio
ID: 1
Format: AC-3
Format/Info: Audio Coding 3
Mode extension: CM (complete main)
Format settings, Endianness: Big
Codec ID: 2000
Duration: 1h 15mn
Bit rate mode: Constant
Bit rate: 384 Kbps
Channel(s): 6 channels
Channel positions: Front: L C R, Side: L R, LFE
Sampling rate: 48.0 KHz
Compression mode: Lossy
Stream size: 207 MiB (16%)
Alignment: Split accross interleaves
Interleave, duration: 42 ms (1.00 video frame)
Interleave, preload duratio: 500 ms



                           

Zaregistrujte se pro stahování torrentů!