Bizarní jídla / Bizarre Foods with Andrew Zimmern S01E09 - Mexiko (2006)(CZ)[TvRip]


Zaregistrujte se pro stahování torrentů!


ČSFD
Jazyk: CZ
Titulky: Ne
Délka: 43mn 32s
Rok vydání: 2006

POPIS:
Andrew Zimmern je kuchař, který si získal uznání nejenom svým vařením, ale také psaním knih o jídle. V pořadu Podivná jídla se Andrew s otevřenou myslí, silným žaludkem a zdravou chutí k jídlu vydává na poznávací cestu, během které objeví a divákům představí pochoutky z různých koutů světa.

Na svých dřívějších cestách dospěl k názoru, že nejlepší způsob, jak pochopit kulturu každé země, je zjistit, jaké tradiční jídlo místní obyvatele živí po celá staletí.

Ochutná například jehněčí oči, uvařená kravská kopyta, usmažené cvrčky, kaši ze šneků a dokonce také čumák losa v rosolu. Cestování s Andrewem neznamená jen vidět krásnou krajinu, ale také poznat místní kulinářské tradice a to nám zaručeně rozšíří obzory a dodá odvahu namísto známých chutí smaženého sýra a hamburgerů okusit chutě a vůně celého světa.

NÁHLEDY:



MEDIA INFO:
General
Complete name               : C:\Users\úúúúúúúúúúúúúúúúúúúú\Downloads\1x09-Bizarní-jídla-s-Andrewem-Zimmernem---Mexiko.mp4
Format                      : MPEG-4
Format profile              : Base Media
Codec ID                    : isom (isom/iso2/avc1/mp41)
File size                   : 336 MiB
Duration                    : 43mn 37s
Overall bit rate            : 1 077 Kbps
Writing application         : Lavf57.42.100

Video
ID                          : 1
Format                      : AVC
Format/Info                 : Advanced Video Codec
Format profile              : High@L3.1
Format settings, CABAC      : Yes
Format settings, ReFrames   : 8 frames
Codec ID                    : avc1
Codec ID/Info               : Advanced Video Coding
Duration                    : 43mn 37s
Bit rate                    : 1 003 Kbps
Width                       : 704 pixels
Height                      : 400 pixels
Display aspect ratio        : 16:9
Frame rate mode             : Constant
Frame rate                  : 25.000 fps
Color space                 : YUV
Chroma subsampling          : 4:2:0
Bit depth                   : 8 bits
Scan type                   : Progressive
Bits/(Pixel*Frame)          : 0.142
Stream size                 : 313 MiB (93%)

Audio
ID                          : 2
Format                      : AAC
Format/Info                 : Advanced Audio Codec
Format profile              : LC
Codec ID                    : 40
Duration                    : 43mn 37s
Bit rate mode               : Constant
Bit rate                    : 66.2 Kbps
Channel(s)                  : 2 channels
Channel positions           : Front: L R
Sampling rate               : 48.0 KHz
Frame rate                  : 46.875 fps (1024 spf)
Compression mode            : Lossy
Stream size                 : 20.5 MiB (6%)
Language                    : unk
Default                     : Yes
Alternate group             : 1

                      

Zaregistrujte se pro stahování torrentů!