Děvče za výkladem (1937)(CZ)[TvRip]


Zaregistrujte se pro stahování torrentů!



Jazyk: Český
Titulky: Nejsou
Kvalita zvuku: 2.0
Kvalita videa: 970x640
Odkaz na CSFD: http://www.csfd.cz/film/1555-devce-za-vykladem/komentare/
Rok vydání: 1937
Délka: 96 min
Žánr: Romantický / Drama

Inka, osamělé chudé děvče, je zaměstnaná v obchodě s umělými květinami, patřícím její tetě Anně Hurychové. Přítelkyni Božce se Inka svěřuje, že její milostný vztah s úspěšným hercem Viktorem nezůstal bez následků. Sobecký a namyšlený Viktor je rozmazlován obdivovatelkami a hlavně svojí matkou, úspěšnou spisovatelkou dívčích románů. Ta, ač ve svých knihách neustále sezdává bohaté muže s chudými dívkami, v reálném životě Inku jako snachu odmítá. Viktor odjíždí na exteriéry a o dívku se dál nezajímá. Inka přichází po hádce s tetou o práci. Jediné zaměstnání, které po mnoha dnech našla, je vystupování v roli živé modelky v plavkách za výlohou obchodního domu. Akce však vzbudí nežádoucí rozruch a Inka je opět bez práce. V nouzi se o ni postará Božka se svým bratrem Ferdou, který Inku tajně miluje. Narození chlapce usmíří tetu, která má ve skutečnosti zlaté srdce...





Format/Info: Audio Video Interleave
File size: 888 MiB
Duration: 1 h 34 min
Overall bit rate: 1 310 kb/s
Movie name: Děvče za výkladem 1937
Writing application: Lavf54.63.104

Video
ID: 0
Format: AVC
Format/Info: Advanced Video Codec
Format profile: Main@L3.1
Format settings, CABAC: Yes
Format settings, ReFrames: 1 frame
Codec ID: H264
Duration: 1 h 34 min
Bit rate: 970 kb/s
Width: 640 pixels
Height: 512 pixels
Display aspect ratio: 5:4
Frame rate mode: Variable
Frame rate: 60.000 FPS
Color space: YUV
Chroma subsampling: 4:2:0
Bit depth: 8 bits
Scan type: Progressive
Bits/(Pixel*Frame): 0.049
Stream size: 657 MiB (74%)
Writing library: x264 core 129
Encoding settings: cabac=1 / ref=1 / deblock=1:0:0 / analyse=0x1:0x131 / me=dia / subme=2 / psy=1 / psy_rd=1.00:0.00 / mixed_ref=0 / me_range=16 / chroma_me=1 / trellis=0 / 8x8dct=0 / cqm=0 / deadzone=21,11 / fast_pskip=1 / chroma_qp_offset=0 / threads=4 / lookahead_threads=1 / sliced_threads=0 / nr=0 / decimate=1 / interlaced=0 / bluray_compat=0 / constrained_intra=0 / bframes=0 / weightp=2 / keyint=250 / keyint_min=25 / scenecut=40 / intra_refresh=0 / rc_lookahead=40 / rc=abr / mbtree=1 / bitrate=970 / ratetol=1.0 / qcomp=0.60 / qpmin=10 / qpmax=51 / qpstep=4 / ip_ratio=1.41 / aq=1:1.00

Audio
ID: 1
Format: MPEG Audio
Format version: Version 1
Format profile: Layer 3
Mode: Joint stereo
Codec ID: 55
Codec ID/Hint: MP3
Duration: 1 h 34 min
Bit rate mode: Constant
Bit rate: 320 kb/s
Channel(s): 2 channels
Sampling rate: 48.0 kHz
Compression mode: Lossy
Stream size: 217 MiB (24%)
Alignment: Aligned on interleaves
Interleave, duration: 24  ms (1.44 video frame)
Writing library: LAME3.99.5
                                         

Zaregistrujte se pro stahování torrentů!