Divokej Bill - Koncert doma (2015)(CZ)[TVRip]


Zaregistrujte se pro stahování torrentů!

Divokej Bill - Koncert doma


Jazyk: CZ
Titulky: Ne
Rok vydání: 2015
Délka: 52mn 5s
Žánr: Folk-rock

Jedna z nejpopulárnějších českých kapel současnosti před několikatisícovým publikem v domácích Úvalech.
Stalo se dobrou tradicí, že skupina Divokej Bill jednou za rok potěší své fanoušky velkým open air koncertem na domácí půdě – v Úvalech u Prahy. Patnáctého srpna 2015 se opět sešlo několikatisícové publikum, aby si v jedinečné atmosféře koncertu pod širým nebem poslechlo dlouhou řadu hitů, které skupina vyprodukovala za patnáct let své dosavadní existence, ale i nové skladby, které se objeví na její nejnovější desce.

Odkaz: http://www.csfd.cz/film/431930-divokej-bill-koncert-doma/galerie/?type=1-stage/


1. Brouk
2. Láska
3. Pecka
4. Šibenice
5. Tsunami
6. Pravda
7. Zamilovaná
8. Vstávej
9. Dolsin
10. Malování
11. Všema deseti
12. Stromy
13. Cesta
14. Bill
15. Koně
16. Půl pátý ráno
17. Batalion
18. Znamení
19. Plakala
20. Pocit
21. Rozárka





General
Complete name: Divokej Bill - Koncert doma\Divokej Bill - Koncert doma (2015).avi
Format: AVI
Format/Info: Audio Video Interleave
File size: 963 MiB
Duration: 52mn 5s
Overall bit rate: 2 584 Kbps
Writing application: Lavf55.7.100

Video
ID: 0
Format: MPEG-4 Visual
Format profile: Simple@L1
Format settings, BVOP: No
Format settings, QPel: No
Format settings, GMC: No warppoints
Format settings, Matrix: Default (H.263)
Codec ID: XVID
Codec ID/Hint: XviD
Duration: 52mn 5s
Bit rate: 2 315 Kbps
Width: 720 pixels
Height: 404 pixels
Display aspect ratio: 16:9
Frame rate: 25.000 fps
Color space: YUV
Chroma subsampling: 4:2:0
Bit depth: 8 bits
Scan type: Progressive
Compression mode: Lossy
Bits/(Pixel*Frame): 0.318
Stream size: 863 MiB (90%)
Title: Main video
Writing library: Lavc55.12.100

Audio
ID: 1
Format: MPEG Audio
Format version: Version 1
Format profile: Layer 3
Mode: Joint stereo
Codec ID: 55
Codec ID/Hint: MP3
Duration: 52mn 5s
Bit rate mode: Constant
Bit rate: 256 Kbps
Channel(s): 2 channels
Sampling rate: 48.0 KHz
Compression mode: Lossy
Stream size: 95.4 MiB (10%)
Alignment: Aligned on interleaves
Interleave, duration: 24 ms (0.60 video frame)
Interleave, preload duratio: 24 ms
Title: Czech
Writing library: LAME3.99.5


                                         

Zaregistrujte se pro stahování torrentů!