Doktor Martin S02E12 - V kurníku (CZ)[TvRip]


Zaregistrujte se pro stahování torrentů!




Jazyk: CZ
Kvalita zvuku: MPEG Audio 256Kbps, 48KHz
Kvalita videa: MPEG-4 Visual (XviD), 720x404 (16:9), 2000Kbps
Odkaz na CSFD: http://www.csfd.cz/film/372797-doktor-martin/prehled/
Rok vydání: 2016
Délka: 52 min
Žánr: Komedie / Rodinný / Drama

Režie: Petr Zahrádka
Scénář: Štefan Titka, Tomáš Končinský, Tereza Dusová
Kamera: Miloslav Holman
Hudba: Andy Cermak, Lumír Hrma
Hrají: Miroslav Donutil, Jitka Čvančarová, Gabriela Marcinková, Jana Štěpánková, Norbert Lichý, Václav Kopta, Tomáš Měcháček, Tomáš Jeřábek, Emília Vášáryová, Tereza Vilišová, Adam Vohánka, Barbora Milotová, Jiří Bartoň, Lukáš Latinák, Matyáš Svoboda, Jan Václavík, Petra Polnišová, Martin Šostý, Milan Zupko, Michaela Petřeková

Pokračování seriálu navazuje na první sérii, ve které doktor Martin opustil kariéru špičkového chirurga v Praze a stal se „obvoďákem" v malém horském městečku Protějov. Poněkud asociální Elinger se i nadále snaží komunikovat se svéráznými místními obyvateli. Kromě toho, že musí opět řešit řadu lékařských případů a zachraňovat dokonce i životy, se ale pokouší také uspořádat svůj soukromý život.


             


Media Info:

General
Complete name: C:\Doktor Martin S02E12 - V kurníku.avi
Format: AVI
Format/Info: Audio Video Interleave
File size: 845 MiB
Duration: 52mn 4s
Overall bit rate: 2 269 Kbps
Writing application: Lavf55.7.100

Video
ID: 0
Format: MPEG-4 Visual
Format profile: Simple@L1
Format settings, BVOP: No
Format settings, QPel: No
Format settings, GMC: No warppoints
Format settings, Matrix: Default (H.263)
Codec ID: XVID
Codec ID/Hint: XviD
Duration: 52mn 4s
Bit rate: 2 000 Kbps
Width: 720 pixels
Height: 404 pixels
Display aspect ratio: 16:9
Frame rate: 25.000 fps
Color space: YUV
Chroma subsampling: 4:2:0
Bit depth: 8 bits
Scan type: Progressive
Compression mode: Lossy
Bits/(Pixel*Frame): 0.275
Stream size: 745 MiB (88%)
Title: Main video
Writing library: Lavc55.12.100

Audio
ID: 1
Format: MPEG Audio
Format version: Version 1
Format profile: Layer 3
Mode: Joint stereo
Codec ID: 55
Codec ID/Hint: MP3
Duration: 52mn 4s
Bit rate mode: Constant
Bit rate: 256 Kbps
Channel(s): 2 channels
Sampling rate: 48.0 KHz
Compression mode: Lossy
Stream size: 95.4 MiB (11%)
Alignment: Aligned on interleaves
Interleave, duration: 24 ms (0.60 video frame)
Interleave, preload duration: 24 ms
Title: Czech
Writing library: LAME3.99.5
                           

Zaregistrujte se pro stahování torrentů!