Formule 1 - Velká cena Německa (2016)(CZ)[TvRip]


Zaregistrujte se pro stahování torrentů!



Jazyk: CZ
Video: AVC, 1280 x 720 (16:9), 1400  Kbps
Zvuk: MPEG Audio, 192Kbps, 44,1 KHz
Žánr: Sportovní
Délka: 114 min

Televizní přenos závodu formule 1, Velká cena Německa, ze dne 31.7.2016.

     

Media Info:

General
Complete name: C:\Formule 1 - Velka cena Nemecka.avi
Format: AVI
Format/Info: Audio Video Interleave
Format profile: OpenDML
File size: 1.29 GiB
Duration: 1h 54mn
Overall bit rate: 1 608 Kbps
Writing application: Lavf54.63.104

Video
ID: 0
Format: AVC
Format/Info: Advanced Video Codec
Format profile: Main@L3.1
Format settings, CABAC: Yes
Format settings, ReFrames: 1 frame
Codec ID: H264
Duration: 1h 54mn
Bit rate: 1 400 Kbps
Width: 1 280 pixels
Height: 720 pixels
Display aspect ratio: 16:9
Frame rate mode: Variable
Frame rate: 25.000 fps
Color space: YUV
Chroma subsampling: 4:2:0
Bit depth: 8 bits
Scan type: Progressive
Bits/(Pixel*Frame): 0.061
Stream size: 1.12 GiB (87%)
Writing library: x264 core 129
Encoding settings: cabac=1 / ref=1 / deblock=1:0:0 / analyse=0x1:0x131 / me=dia / subme=2 / psy=1 / psy_rd=1.00:0.00 / mixed_ref=0 / me_range=16 / chroma_me=1 / trellis=0 / 8x8dct=0 / cqm=0 / deadzone=21,11 / fast_pskip=1 / chroma_qp_offset=0 / threads=4 / lookahead_threads=1 / sliced_threads=0 / nr=0 / decimate=1 / interlaced=0 / bluray_compat=0 / constrained_intra=0 / bframes=0 / weightp=2 / keyint=250 / keyint_min=25 / scenecut=40 / intra_refresh=0 / rc_lookahead=40 / rc=abr / mbtree=1 / bitrate=1400 / ratetol=1.0 / qcomp=0.60 / qpmin=10 / qpmax=51 / qpstep=4 / ip_ratio=1.41 / aq=1:1.00

Audio
ID: 1
Format: MPEG Audio
Format version: Version 1
Format profile: Layer 3
Mode: Joint stereo
Mode extension: MS Stereo
Codec ID: 55
Codec ID/Hint: MP3
Duration: 1h 54mn
Bit rate mode: Constant
Bit rate: 192 Kbps
Channel(s): 2 channels
Sampling rate: 44.1 KHz
Compression mode: Lossy
Stream size: 158 MiB (12%)
Alignment: Aligned on interleaves
Interleave, duration: 26 ms (0.65 video frame)
                           

Zaregistrujte se pro stahování torrentů!