Harmonika (1937)(CZ)[TvRip]


Zaregistrujte se pro stahování torrentů!



Jazyk: Český
Titulky: Nejsou
Kvalita zvuku: 2.0
Kvalita videa: 640x468
Odkaz na CSFD: http://www.csfd.cz/film/939-harmonika/prehled/
Rok vydání: 1937
Délka: 80 min
Žánr: Drama

Majitelé uhelného dolu, Vorlíček a Pač, zastavili těžbu uhlí. Mají nedostatek peněz a domnívají se, že zásoby uhlí jsou vyčerpány. Mnoho horníků přijde o práci a trpí nedostatkem. K nezaměstnaným patří i Pavelka. Jeho rodinu drží nad vodou syn Pepík, který hraje výborně na harmoniku. S přítelkyní Emčou hrají a zpívají na dvorcích činžáků. Jednou však o tento skromný výdělek přijdou, když starý zloděj Bulín Pepíkovu harmoniku rozbije. Inženýr Soldán, který je tichým společníkem majitelů dolu, věří, že v dole jsou další ložiska uhlí. Po marném úsilí získat peníze k obnovení těžby přesvědčí dělníky, aby nastoupili do práce bez nároku na mzdu. Horníci souhlasí, ale žádají alespoň jídlo pro sebe a své rodiny. Pepíkovi se náhodou podaří opatřit konzervy, které měly být zničeny. Odveze je do dolu, kde pak při práci s dynamitem utrpí těžké zranění. Majitelé dolu, kteří se obávají, že Soldán podle určitých dokumentů může prozradit jejich dřívější podvody, se snaží odvrátit horníky od nástupu do práce...



Format/Info: Audio Video Interleave
File size: 890 MiB
Duration: 1 h 17 min
Overall bit rate: 1 609 kb/s
Movie name: Harmonika 1937
Writing application: Lavf54.63.104

Video
ID: 0
Format: AVC
Format/Info: Advanced Video Codec
Format profile: Main@L3.1
Format settings, CABAC: Yes
Format settings, ReFrames: 1 frame
Codec ID: H264
Duration: 1 h 17 min
Bit rate: 1 261 kb/s
Width: 640 pixels
Height: 468 pixels
Display aspect ratio: 4:3
Frame rate mode: Variable
Frame rate: 60.000 FPS
Color space: YUV
Chroma subsampling: 4:2:0
Bit depth: 8 bits
Scan type: Progressive
Bits/(Pixel*Frame): 0.070
Stream size: 702 MiB (79%)
Writing library: x264 core 129
Encoding settings: cabac=1 / ref=1 / deblock=1:0:0 / analyse=0x1:0x131 / me=dia / subme=2 / psy=1 / psy_rd=1.00:0.00 / mixed_ref=0 / me_range=16 / chroma_me=1 / trellis=0 / 8x8dct=0 / cqm=0 / deadzone=21,11 / fast_pskip=1 / chroma_qp_offset=0 / threads=4 / lookahead_threads=1 / sliced_threads=0 / nr=0 / decimate=1 / interlaced=0 / bluray_compat=0 / constrained_intra=0 / bframes=0 / weightp=2 / keyint=250 / keyint_min=25 / scenecut=40 / intra_refresh=0 / rc_lookahead=40 / rc=abr / mbtree=1 / bitrate=1261 / ratetol=1.0 / qcomp=0.60 / qpmin=10 / qpmax=51 / qpstep=4 / ip_ratio=1.41 / aq=1:1.00

Audio
ID: 1
Format: MPEG Audio
Format version: Version 1
Format profile: Layer 3
Mode: Joint stereo
Mode extension: MS Stereo
Codec ID: 55
Codec ID/Hint: MP3
Duration: 1 h 17 min
Bit rate mode: Constant
Bit rate: 320 kb/s
Channel(s): 2 channels
Sampling rate: 48.0 kHz
Compression mode: Lossy
Stream size: 177 MiB (20%)
Alignment: Aligned on interleaves
Interleave, duration: 24  ms (1.44 video frame)
Writing library: LAME3.99.5


                           

Zaregistrujte se pro stahování torrentů!