Holka nebo kluk? (1938)(CZ)[TVRip]


Zaregistrujte se pro stahování torrentů!

Jazyk: Český
Titulky: Nejsou
Kvalita zvuku: 2.0
Kvalita videa: 720x544
Odkaz na CSFD: http://www.csfd.cz/film/8497-holka-nebo-kluk/prehled/
Rok vydání: 1938
Délka: 101 min
Žánr: Komedie

Tři nepovedená manželství udělala ze statkáře Orlického nepřítele žen. Ke staromládenectví nutí své zaměstnance i synovce Ríšu, který s ním žije. Poté, co zjistí, že se Ríša schází s dívkou, uvažuje Orlický o vhodnějším dědici. Statkář zahlédne v novinách fotografii Ady Bártů, tanečníka a zpěváka. Uvědomí si, že by mohlo jít o syna jeho sestry, která se kdysi provdala proti přání rodičů. Pošle proto do Prahy svého tajemníka Kropáčka. Ten zjistí, že jde skutečně o potomka sestry Orlického a že má dokonce hospodářskou školu, ale že je to bohužel dívka. Ada jenom vystupuje v mužském převleku v divadle. Ada přinutí Kropáčka, aby ji v mužském obleku vzal s sebou. Strýc uvěří, že jde o chlapce, ale Ada má brzy se svým převlekem potíže, protože se zamilovala do Ríši...





Format/Info: Audio Video Interleave
File size: 1.26 GiB
Duration: 1 h 40 min
Overall bit rate: 1 802 kb/s
Writing library: VirtualDub build 32661/release

Video
ID: 0
Format: MPEG-4 Visual
Format profile: Advanced Simple@L5
Format settings, BVOP: 2
Format settings, QPel: No
Format settings, GMC: No warppoints
Format settings, Matrix: Default (H.263)
Muxing mode: Packed bitstream
Codec ID: XVID
Codec ID/Hint: XviD
Duration: 1 h 40 min
Bit rate: 1 600 kb/s
Width: 720 pixels
Height: 544 pixels
Display aspect ratio: 4:3
Frame rate: 25.000 FPS
Color space: YUV
Chroma subsampling: 4:2:0
Bit depth: 8 bits
Scan type: Progressive
Compression mode: Lossy
Bits/(Pixel*Frame): 0.163
Stream size: 1.12 GiB (89%)
Writing library: XviD 64

Audio
ID: 1
Format: MPEG Audio
Format version: Version 1
Format profile: Layer 3
Mode: Joint stereo
Codec ID: 55
Codec ID/Hint: MP3
Duration: 1 h 40 min
Bit rate mode: Constant
Bit rate: 192 kb/s
Channel(s): 2 channels
Sampling rate: 48.0 kHz
Compression mode: Lossy
Stream size: 138 MiB (11%)
Alignment: Split accross interleaves
Interleave, duration: 40  ms (1.00 video frame)
Interleave, preload duration: 500  ms
                                           

Zaregistrujte se pro stahování torrentů!