Její hřích (1939)(CZ)[TvRip]


Zaregistrujte se pro stahování torrentů!



Jazyk: Český
Titulky: Nejsou
Kvalita zvuku: 2.0
Kvalita videa: 704x572
Odkaz na CSFD: http://www.csfd.cz/film/5277-jeji-hrich/prehled/
Rok vydání: 1939
Délka: 89 min
Žánr: Drama / Romantický

Zita Kabátová v atraktivní novele o syfilis podle Otakara Hanuše
V roce 1939, ve kterém Zita Kabátová natočila 11 filmů, se také stala hlavní hrdinkou posledního projektu Oldřicha Kmínka. Kabátová byla tváří trojice Kmínkových melodramat, která se všechna objevují v naší kolekci – Manželství na úvěr, Žena na rozcestí a Její hřích. Kmínek nalezl v Kabátové ideální představitelku titulních postav, které vždy obletují muži a východiskem z takové situace je jim morální síla hrdinčina. V Jejím hříchu se znovu po boku Kabátové objevil v kladné roli Zdeněk Štěpánek, zatímco role svůdce tentokráte připadla Ladislavu Boháčovi.





Format/Info: Audio Video Interleave
File size: 1.11 GiB
Duration: 1 h 26 min
Overall bit rate: 1 843 kb/s

Video
ID: 0
Format: MPEG-4 Visual
Format profile: Advanced Simple@L5
Format settings, BVOP: 2
Format settings, QPel: No
Format settings, GMC: No warppoints
Format settings, Matrix: Default (H.263)
Codec ID: XVID
Codec ID/Hint: XviD
Duration: 1 h 26 min
Bit rate: 1 606 kb/s
Width: 704 pixels
Height: 572 pixels
Display aspect ratio: 5:4
Frame rate: 25.000 FPS
Color space: YUV
Chroma subsampling: 4:2:0
Bit depth: 8 bits
Scan type: Progressive
Compression mode: Lossy
Bits/(Pixel*Frame): 0.160
Stream size: 989 MiB (87%)
Writing library: XviD 63

Audio
ID: 1
Format: MPEG Audio
Format version: Version 1
Format profile: Layer 3
Codec ID: 55
Codec ID/Hint: MP3
Duration: 1 h 26 min
Source duration: 1 h 26 min
Bit rate mode: Constant
Bit rate: 224 kb/s
Channel(s): 2 channels
Sampling rate: 48.0 kHz
Compression mode: Lossy
Stream size: 138 MiB (12%)
Alignment: Split accross interleaves
Interleave, duration: 24  ms (0.60 video frame)
Writing library: LAME3.98.4
                                         

Zaregistrujte se pro stahování torrentů!