Léto All Exclusive / Babysitting 2 (2015)(CZ)


Zaregistrujte se pro stahování torrentů!

Léto All Exclusive / Babysitting 2  


Jazyk:český
Titulky:ne
Délka:1h 32mn
Rok vydání:2015
Žánr: Komedie



Poslední rovnice tohoto školního roku je exclusivní přípravkou na prázdniny: Filmová série „Pařeb" + hororový žánr Found Footage + Brazílie = komedie Léto All Exclusive. Všechno začalo jako skvělá dovolená s kamarády a snoubenkou v brazilském ráji. Sluníčko, pláž, samba, rumba i rum, dovádění ve vodě, holky v bikinách. Právě tady chce Franck požádat svou snoubenku o ruku. Jeden den se skupina na prázdninách vypraví na výlet, otec snoubenky jim vnutí i stoletou babičku na elektrickém vozíku . . . střih! Najednou probíhá horečnaté pátrání. Z výletu do džungle se nevrátili, několik dní o nich nikdo neví, v oblasti jsou domorodé kmeny kanibalů. Až konečně! Najde se kamera na selfie tyči, kterou si jeden z nich vždycky všechno natáčel. A ukáže se, že to nebyl výlet, ale opravdový brazilský karneval katastrof. Drzou starou babičku by ještě přežili. Dvě sexy dívky, které se k nim přidají, taky nejsou to nejhorší. Lenochod je dokonce roztomilý. Ovšem jejich vlastní talent na vytváření šílených situací a průšvihů? Ten promění exotický ráj v kůlničku na dříví dřív, než bys řekl Pelé. Tukan by mohl vyprávět!






General
Complete name: C:\Users\Desktop\Babysitting.2.2015.BDRip.XviD.CZ-FTU.avi
Format: AVI
Format/Info: Audio Video Interleave
File size: 1.27 GiB
Duration: 1h 32mn
Overall bit rate: 1 957 Kbps
Writing application: VirtualDubMod 1.5.10.2 (build 2542/release)
Writing library: VirtualDubMod build 2542/release

Video
ID: 0
Format: MPEG-4 Visual
Format profile: Advanced Simple@L5
Format settings, BVOP: 1
Format settings, QPel: No
Format settings, GMC: No warppoints
Format settings, Matrix: Default (MPEG)
Codec ID: XVID
Codec ID/Hint: XviD
Duration: 1h 32mn
Bit rate: 1 500 Kbps
Width: 720 pixels
Height: 384 pixels
Display aspect ratio: 1.85:1
Frame rate: 24.000 fps
Color space: YUV
Chroma subsampling: 4:2:0
Bit depth: 8 bits
Scan type: Progressive
Compression mode: Lossy
Bits/(Pixel*Frame): 0.226
Stream size: 996 MiB (77%)
Writing library: XviD 1.2.1 (UTC 2008-12-04)

Audio
ID: 1
Format: AC-3
Format/Info: Audio Coding 3
Mode extension: CM (complete main)
Format settings, Endianness: Big
Codec ID: 2000
Duration: 1h 32mn
Bit rate mode: Constant
Bit rate: 448 Kbps
Channel(s): 6 channels
Channel positions: Front: L C R, Side: L R, LFE
Sampling rate: 48.0 KHz
Compression mode: Lossy
Stream size: 298 MiB (23%)
Alignment: Split accross interleaves
Interleave, duration: 42 ms (1.00 video frame)
Interleave, preload duratio: 500 ms


                           

Zaregistrujte se pro stahování torrentů!