Pěna zabiják / The Stuff (1985)(CZ)


Zaregistrujte se pro stahování torrentů!

Název filmu: Pěna zabiják / The Stuff (1985)(CZ)

Odkaz na CSDF: http://www.csfd.cz/film/22996-pena-zabijak/prehled/
 
Jazyk: český

Titulky: ne

Rok vydání: 1985

Délka: 86 minut

Žánr / Země: Horor / Komedie / Sci-Fi / Mysteriózní / USA

Obrázek:



Krátký popis v češtině:
Z hlubin země začne vytékat podivná, ale velmi chutná pěna podobná jogurtu. Lidé jí začnou konzumovat a pěna je začne ovládat. Rychle se dostává do všech obchodů, kde na ni již čekají nenasytní zákazníci, ale pěna již brzy ukáže svou pravou tvář.


MediaInfo:
Format: AVI
Format/Info: Audio Video Interleave
File size: 985 MiB
Duration: 1h 26mn
Overall bit rate mode: Variable
Overall bit rate: 1 592 Kbps
Writing application: VirtualDubMod 1.5.4.1 (build 2178/release)
Writing library: VirtualDubMod build 2178/release

Video
ID: 0
Format: MPEG-4 Visual
Format profile: Advanced Simple@L5
Format settings, BVOP: 1
Format settings, QPel: No
Format settings, GMC: No warppoints
Format settings, Matrix: Custom
Codec ID: XVID
Codec ID/Hint: XviD
Duration: 1h 26mn
Bit rate: 1 475 Kbps
Width: 720 pixels
Height: 400 pixels
Display aspect ratio: 16:9
Frame rate: 23.976 (23976/1000) fps
Color space: YUV
Chroma subsampling: 4:2:0
Bit depth: 8 bits
Scan type: Progressive
Compression mode: Lossy
Bits/(Pixel*Frame): 0.214
Stream size: 913 MiB (93%)
Writing library: XviD 1.2.1 (UTC 2008-12-04)

Audio
ID: 1
Format: MPEG Audio
Format version: Version 1
Format profile: Layer 3
Mode: Joint stereo
Mode extension: MS Stereo
Codec ID: 55
Codec ID/Hint: MP3
Duration: 1h 26mn
Bit rate mode: Variable
Bit rate: 104 Kbps
Nominal bit rate: 128 Kbps
Channel(s): 2 channels
Sampling rate: 48.0 KHz
Compression mode: Lossy
Stream size: 64.3 MiB (7%)
Alignment: Aligned on interleaves
Interleave, duration: 24 ms (0.58 video frame)
Interleave, preload duration: 558 ms
Writing library: LAME3.98r
Encoding settings: -m j -V 4 -q 2 -lowpass 17 --abr 128
Language: Czech




Screen:


                                         

Zaregistrujte se pro stahování torrentů!