Polda S01E03 - Noční služba (CZ)[WebRip]


Zaregistrujte se pro stahování torrentů!


Jazyk: CZ
Titulky: Ne
CSFD: http://www.csfd.cz/film/448288-polda/prehled/
Kvalita zvuku: MPEG Audio, 256Kbps, 48KHz
Kvalita videa: MPEG-4 Visual (XviD), 720x400 (16:9), 1838Kbps
Rok vydání: 2016
Délka: 55min
Žánr: Krimi / Komedie
Režie: Jaroslav Fuit
Kamera: Aleš Hart
Hrají: David Matásek, Igor Orozovič, Ondřej Pavelka, Lenka Vlasáková, Jiří Vyorálek, Jana Kolesárová, Mário Kubec



Kriminální seriál vycházející z žánru buddy movie, jehož hlavními postavami jsou dva naprosto rozdílní hrdinové – komisař Michal Bříza (David Matásek) a jeho parťák, absolvent policejní akademie Andrej (Igor Orozovič).


                       


Media Info:

General
Complete name: C:\ Polda S01E03 - Noční služba.avi
Format: AVI
Format/Info: Audio Video Interleave
File size: 837 MiB
Duration: 55mn 30s
Overall bit rate: 2 107 Kbps
Writing application: Lavf55.7.100

Video
ID: 0
Format: MPEG-4 Visual
Format profile: Simple@L1
Format settings, BVOP: No
Format settings, QPel: No
Format settings, GMC: No warppoints
Format settings, Matrix: Default (H.263)
Codec ID: XVID
Codec ID/Hint: XviD
Duration: 55mn 30s
Bit rate: 1 838 Kbps
Width: 720 pixels
Height: 400 pixels
Display aspect ratio: 16:9
Frame rate: 25.000 fps
Color space: YUV
Chroma subsampling: 4:2:0
Bit depth: 8 bits
Scan type: Progressive
Compression mode: Lossy
Bits/(Pixel*Frame): 0.255
Stream size: 730 MiB (87%)
Title: Main video
Writing library: Lavc55.12.100

Audio
ID: 1
Format: MPEG Audio
Format version: Version 1
Format profile: Layer 3
Mode: Joint stereo
Mode extension: MS Stereo
Codec ID: 55
Codec ID/Hint: MP3
Duration: 55mn 30s
Bit rate mode: Constant
Bit rate: 256 Kbps
Channel(s): 2 channels
Sampling rate: 48.0 KHz
Compression mode: Lossy
Stream size: 102 MiB (12%)
Alignment: Aligned on interleaves
Interleave, duration: 24 ms (0.60 video frame)
Title: Czech
                           

Zaregistrujte se pro stahování torrentů!