Rapl S01E12 - Zdař Bůh! (CZ)[TvRip]


Zaregistrujte se pro stahování torrentů!



Jazyk: CZ
Kvalita zvuku: MPEG Audio 256 Kbps, 48KHz
Kvalita videa: MPEG-4 Visual (XviD), 720x404 (16:9), 1889 Kbps
Odkaz na CSFD: http://www.csfd.cz/film/412007-rapl/prehled/
Rok vydání: 2016
Délka: 59 min
Žánr: Krimi / Drama / Thriller / Akční

Detektiv Kuneš má zase jednou problém. Zmlátí přítele své bývalé ženy a hrozí mu odchod od policie. Vysoce postavená nadřízená má pro něj ale řešení – uklidí ho na stáž do zapadlého pohraničí. Má to jen jeden háček. Jeho skutečným posláním je objasnit dva roky starou vraždu policistky Wágnerové, jejíž vyšetřování uvázlo na mrtvém bodě. Kriminalita v pohraničí je však jedna z nejvyšších v republice – pašování, výroba drog, pytláctví, prostituce, vraždy. Kuneš musí řešit jeden obtížný případ za druhým a k tomu, proč do kraje přišel, se dostává až po čase a vlastně náhodou.

     

Media Info:

General
Complete name: C:\Rapl S01E12 - Zdař Bůh!.avi
Format: AVI
Format/Info: Audio Video Interleave
File size: 910 MiB
Duration: 58mn 56s
Overall bit rate: 2 158 Kbps
Writing application: Lavf55.7.100

Video
ID: 0
Format: MPEG-4 Visual
Format profile: Simple@L1
Format settings, BVOP: No
Format settings, QPel: No
Format settings, GMC: No warppoints
Format settings, Matrix: Default (H.263)
Codec ID: XVID
Codec ID/Hint: XviD
Duration: 58mn 56s
Bit rate: 1 889 Kbps
Width: 720 pixels
Height: 404 pixels
Display aspect ratio: 16:9
Frame rate: 25.000 fps
Color space: YUV
Chroma subsampling: 4:2:0
Bit depth: 8 bits
Scan type: Progressive
Compression mode: Lossy
Bits/(Pixel*Frame): 0.260
Stream size: 796 MiB (88%)
Title: Main video
Writing library: Lavc55.12.100

Audio
ID: 1
Format: MPEG Audio
Format version: Version 1
Format profile: Layer 3
Mode: Joint stereo
Codec ID: 55
Codec ID/Hint: MP3
Duration: 58mn 56s
Bit rate mode: Constant
Bit rate: 256 Kbps
Channel(s): 2 channels
Sampling rate: 48.0 KHz
Compression mode: Lossy
Stream size: 108 MiB (12%)
Alignment: Aligned on interleaves
Interleave, duration: 24 ms (0.60 video frame)
Interleave, preload duration: 24 ms
Title: Czech
Writing library: LAME3.99.5
               

Zaregistrujte se pro stahování torrentů!