Tajný život mazlíčků / The Secret Life of Pets (2016)(CZ)


Zaregistrujte se pro stahování torrentů!

Tajný život mazlíčků / The Secret Life of Pets  


Jazyk:český
Titulky: CZ forced
Délka:1h 26mn
Rok vydání:2016
Žánr: Animovaný / Komedie / Rodinný



Co dělají vaši čtyřnozí miláčci, když nejste doma? Odpověď na otázku, kterou se trápí každý kočičkář a pejskař, najdete v animované komediální lahůdce Tajný život mazlíčků. Max a Katie jsou spřízněné duše, ti naprosto nejlepší kámoši na světě. Co na tom, že Max je pes a Katie člověk? Kdyby se Katie každý den na dlouhé hodiny neztrácela a nenechávala Maxe samotného v jejich bytě, byl by nejspokojenější hafan pod sluncem. Takhle to aspoň platilo do chvíle, kdy si Katie přivedla z útulku chlupaté psí monstrum jménem Baron a rozhodla se, že od té chvíle budou žít ve třech. Mezi Maxem a Baronem to byla nenávist na první pohled. Od první vteřiny vymýšlejí, jak tomu druhému ztrpčit život, což je přivádí do čím dál komplikovanějších situací. Ve finále skončí ztracení, opuštění a obklíčení skupinkou osiřelých zvířat, která pod vedením šíleného králíka vládnou městskému podzemí. Naštěstí má Max doma pořádnou smečku přátel, kteří se rozhodnou, že ho nenechají na holičkách a vydají se ze svých pelíšků na mimořádně dobrodružnou výpravu, jejímž cílem je nalezení a záchrana Maxe. Musí to navíc zvládnout v šibeničním termínu, než se jejich páníčkové vrátí domů. Jestli by nakonec nebylo lepší nepřemýšlet o tom, co bez nás dělají.






Complete name: C:\Users\Desktop\Tajný život mazlíčků\The.Secret.Life.of.Pets.2016.BDRip.XviD.CZ-TreZzoR.avi
Format: AVI
Format/Info: Audio Video Interleave
File size: 1.33 GiB
Duration: 1h 26mn
Overall bit rate: 2 201 Kbps
Writing application: VirtualDubMod 1.5.10.2 (build 2542/release)
Writing library: VirtualDubMod build 2542/release

Video
ID: 0
Format: MPEG-4 Visual
Format profile: Advanced Simple@L5
Format settings, BVOP: 1
Format settings, QPel: No
Format settings, GMC: No warppoints
Format settings, Matrix: Default (MPEG)
Codec ID: XVID
Codec ID/Hint: XviD
Duration: 1h 26mn
Bit rate: 2 000 Kbps
Width: 720 pixels
Height: 384 pixels
Display aspect ratio: 1.85:1
Frame rate: 23.976 fps
Color space: YUV
Chroma subsampling: 4:2:0
Bit depth: 8 bits
Scan type: Progressive
Compression mode: Lossy
Bits/(Pixel*Frame): 0.302
Stream size: 1.21 GiB (91%)
Writing library: XviD 1.2.1 (UTC 2008-12-04)

Audio
ID: 1
Format: AC-3
Format/Info: Audio Coding 3
Mode extension: CM (complete main)
Format settings, Endianness: Big
Codec ID: 2000
Duration: 1h 26mn
Bit rate mode: Constant
Bit rate: 192 Kbps
Channel(s): 2 channels
Channel positions: Front: L R
Sampling rate: 48.0 KHz
Compression mode: Lossy
Stream size: 119 MiB (9%)
Alignment: Split accross interleaves
Interleave, duration: 42 ms (1.00 video frame)
Interleave, preload duratio: 500 ms


               

Zaregistrujte se pro stahování torrentů!