Teorie velkého třesku / The Big Bang Theory 9.série (CZ)[WebRip]


Zaregistrujte se pro stahování torrentů!

Jazyk: CZ
Titulky: CZ
Odkaz na CSFD: http://csfd.cz/film/234260-teorie-velkeho-tresku/
Rok vydání: 2016
Délka: 20 minut
Žánr: Sitcom, Komedie



Úspěšný TV seriál konečně na DVD. Dva fyzici Leonard a Sheldon rozumí úplně všemu, od nepřekonatelné gravitace černých děr po spletitou strukturu atomů. Jenže když vezmete ty atomy a zformujete z nich ženu, jsou oba vědátoři v koncích. Když se do sousedního bytu přistěhuje Penny, žena se všemi atomy na těch pravých místech, začne se soukromý vesmír pánů Leonarda a Sheldona rozpínat do netušených rozměrů. Tvůrci série Chuck Lorre a Bill Prady vytvořili skvělou melanž vědy, superhrdinů i sexu. Jim Parsons a Johnny Galecki v hlavních rolích rozesmějí každého…
Zdroj:CSFD



1. Raketový nástup pomanželské krize (The Matrimonial Momentum) 23. 6. 2016
2. Oscilace kolem rozchodů (The Separation Oscillation) 27. 6. 2016
3. Selhání vědeckých principů (The Bachelor Party Corrosion) 28. 6. 2016
4. Aproximace roku 2003 (The 2003 Approximation) 29. 6. 2016
5. Zvyšování tělesné kondice (The Perspiration Implementation) 30. 6. 2016
6. Machinace s heliem (The Helium Insufficiency) 4. 7. 2016
7. Dozvuky Spocka (The Spock Resonance) 5. 7. 2016
8. Šmírování tajemného rande (The Mystery Date Observation) 6. 7. 2016
9. Vystřídání partnerských rolí (The Platonic Permutation) 7. 7. 2016
10. Kompenzace zhrzenosti (The Earworm Reverberation) 11. 7. 2016
11. Očekávání premiérové noci (The Opening Night Excitation) 12. 7. 2016
12. Transformace obchodní schůzky (The Sales Call Sublimation) 13. 7. 2016
13. Svérázné projevy empatie (The Empathy Optimization) 14. 7. 2016
14. Přitransportování babči (The Meemaw Materialization) 18. 7. 2016
15. Valentýnské extempore (The Valentino Submergence) 19. 7. 2016
16. Negativní reakce na pozitivní test (The Positive Negative Reaction) 20. 7. 2016
17. Experimentování s oslavou (The Celebration Experimentation) 21. 7. 2016
18. Rozčarování z patentové smlouvy (The Application Deterioration) 25. 7. 2016
19. Zmaření plánované pomsty (The Solder Excursion Diversion) 26. 7. 2016
20. Paralely slzavých údolí (The Big Bear Precipitation) 27. 7. 2016
21. Úskalí sendviče na party (The Viewing Party Combustion) 28. 7. 2016
22. Nástrahy degustace (The Fermentation Bifurcation) 1. 8. 2016
23. Protest proti předbíhání ve frontě (The Line Substitution Solution) 2. 8. 2016
24. Scestný záchvat paranoie (The Convergence Convergence) 3. 8. 2016
Format: AVI
Format/Info: Audio Video Interleave
File size: 179 MiB
Duration: 19mn 32s
Overall bit rate: 1 277 Kbps
Writing application: VirtualDubMod 1.5.4.1 (build 2066/release)
Writing library: VirtualDubMod build 2066/release

Video
ID: 0
Format: MPEG-4 Visual
Format profile: Advanced Simple@L5
Format settings, BVOP: 2
Format settings, QPel: No
Format settings, GMC: No warppoints
Format settings, Matrix: Default (H.263)
Muxing mode: Packed bitstream
Codec ID: XVID
Codec ID/Hint: XviD
Duration: 19mn 32s
Bit rate: 1 108 Kbps
Width: 640 pixels
Height: 352 pixels
Display aspect ratio: 16:9
Frame rate: 25.000 fps
Original frame rate: 23.976 fps
Color space: YUV
Chroma subsampling: 4:2:0
Bit depth: 8 bits
Scan type: Progressive
Compression mode: Lossy
Bits/(Pixel*Frame): 0.197
Stream size: 155 MiB (87%)
Writing library: XviD 65

Audio
ID: 1
Format: MPEG Audio
Format version: Version 1
Format profile: Layer 3
Mode: Joint stereo
Mode extension: MS Stereo
Codec ID: 55
Codec ID/Hint: MP3
Duration: 19mn 31s
Bit rate mode: Constant
Bit rate: 160 Kbps
Channel(s): 2 channels
Sampling rate: 48.0 KHz
Compression mode: Lossy
Stream size: 22.3 MiB (13%)
Alignment: Aligned on interleaves
Interleave, duration: 40 ms (1.00 video frame)
Interleave, preload duratio: 504 ms
Writing library: LAME3.98r
Encoding settings: -m j -V 4 -q 3 -lowpass 17.5 -b

                           

Zaregistrujte se pro stahování torrentů!