Ztratila se bílá paní (1937)(CZ)[TVRip]


Zaregistrujte se pro stahování torrentů!

Jazyk: Český
Titulky: Nejsou
Kvalita zvuku: 2.0
Kvalita videa: 720x544
Odkaz na CSFD: http://www.csfd.cz/film/222504-ztratila-se-bila-pani/prehled/
Rok vydání: 1937
Délka: 78 min
Žánr: Rodinný / Dobrodružný

Z hradní síně se ztratil originál obrazu Bílé paní. Parta vesnických kluků se rozhodne vypátrat pravého pachatele krádeže. Získanou odměnu věnují invalidnímu kamarádovi... Nevyrovnaný pokus o dětský dobrodružný film. Pražská premiéra se snad ani nekonala.





Format/Info: Audio Video Interleave
File size: 944 MiB
Duration: 1 h 18 min
Overall bit rate: 1 689 kb/s

Video
ID: 0
Format: MPEG-4 Visual
Format settings, BVOP: 1
Format settings, QPel: No
Format settings, GMC: No warppoints
Format settings, Matrix: Default (H.263)
Muxing mode: Packed bitstream
Codec ID: DX50
Codec ID/Hint: DivX 5
Duration: 1 h 18 min
Bit rate: 1 551 kb/s
Width: 720 pixels
Height: 544 pixels
Display aspect ratio: 4:3
Frame rate: 25.000 FPS
Color space: YUV
Chroma subsampling: 4:2:0
Bit depth: 8 bits
Scan type: Progressive
Compression mode: Lossy
Bits/(Pixel*Frame): 0.158
Stream size: 867 MiB (92%)
Title: Video
Writing library: DivX 2682

Audio
ID: 1
Format: MPEG Audio
Format version: Version 1
Format profile: Layer 3
Mode: Joint stereo
Mode extension: MS Stereo
Codec ID: 55
Codec ID/Hint: MP3
Duration: 1 h 18 min
Bit rate mode: Constant
Bit rate: 128 kb/s
Channel(s): 2 channels
Sampling rate: 48.0 kHz
Compression mode: Lossy
Stream size: 71.5 MiB (8%)
Alignment: Split accross interleaves
Interleave, duration: 40  ms (1.00 video frame)
Interleave, preload duration: 500  ms
Title: Audio - en-US01
                           

Zaregistrujte se pro stahování torrentů!